Μετάβαση σε περιεχόμενο

Καλώς ήρθατε στο Anima Forum


Είσοδος 

Δημιουργία Λογαριασμού
Καλώς ήρθατε στο Anima Forum,προκειμένου να έχετε πρόσβαση στις κατηγορίες μας θα πρέπει να κάνετε μια εγγραφή.

Μπορείτε να κάνετε εγγραφή πατώντας στο "Δημιουργία Λογαριασμού" από πάνω είτε απλά κάνοντας κλικ εδώ!!!!!

Εάν έχετε ήδη λογαριασμό παρακαλώ συνδεθείτε


Με το να γίνετε μέλος της κοινότητάς μας μπορείτε να:
  • Ξεκινήσετε νέα θέματα και συζητήσεις με άλλα μέλη
  • Ενημερώνεστε αυτόματα για θέματα που εσείς επιλέγετε
  • Φτιάξετε το δικό σας προφίλ και να αποκτήσετε φίλους
  • Γινετε γνωστοί μέσω των δημοσιεύσεών σας
 
Hey Sporty ◄►

Φωτογραφία

12 Years A Slave *12 Χρονια Σκλαβος* 2013 Dvdscr Xvid Ac3 Hq Hive

12 years a sla

  • Δεν μπορείτε να ξεκινήσετε νέο θέμα
  • Παρακαλώ συνδεθείτε για να απαντήσετε
1 απάντηση στο θέμα

#1
NEWGREEK

NEWGREEK

    High Roller

  • Member
  • Pip Pip Pip Pip Pip Pip
  • 456 δημοσιεύσεις
  • 118 topics
  • 2224 thanks
  • Χώρα: Country Flag


12 YEARS A SLAVE *12 ΧΡΟΝΙΑ ΣΚΛΑΒΟΣ* 2013 DVDScr XVID AC3 HQ Hive-CM8 | ΞΕΧΩΡ. ΥΠ.

 
QSIB9KC.jpg
 
YkWZElm.jpg
 
Υπότιτλοι:Ελληνικοί, Ξεχωριστοί
Μετάφραση υποτίτλων από:φαίδρα
Μέγεθος:1.83 GB
Είδος Ταινίας:ΒΙΟΓΡΑΦΙΚΗ
Διάρκεια:133 λεπτά
Σκηνοθέτης:ΣΤΙΒ ΜΑΚ ΚΟΥΙΝ
Σενάριο:ΤΖΟΝ ΡΙΝΤΛΕΪ, ΣΟΛΟΜΟΝ ΝΟΡΘΑΠ
Ηθοποιοί:ΜΠΡΑΝΤ ΠΙΤ , ΠΟΛ ΝΤΑΝΟ , ΤΣΙΟΥΕΤΕΛ ΙΤΖΙΟΦΟΡ , ΜΠΕΝΕΝΤΙΚΤ ΚΑΜΠΕΡΜΠΑΤΣ , ΜΑΪΚΛ ΦΑΣΜΠΕΝΤΕΡ , ΣΑΡΑ ΠΟΛΣΟΝ
Ελληνική πρεμιέρα:Πέμπτη, 12 Δεκεμβρίου 2013
 
ΤΕΧΝΙΚΑ ΧΑΡΑΚΤΗΡΙΣΤΙΚΑ:
Spoiler
      Complete name : 12.Years.a.Slave.2013.DVDScr.XVID.AC3.HQ.Hive-CM8.avi
      Format : AVI
      Format/Info : Audio Video Interleave
      File size : 1.83 GiB
      Duration : 2h 14mn
      Overall bit rate : 1 957 Kbps
      Writing application : Nandub v1.0rc2
 
   Video:
      ID : 0
      Format : MPEG-4 Visual
      Format profile : Advanced Simple@L5
      Format settings, BVOP : 2
      Format settings, QPel : Yes
      Format settings, GMC : No warppoints
      Format settings, Matrix : Default (H.263)
      Muxing mode : Packed bitstream
      Codec ID : XVID
      Codec ID/Hint : XviD
      Duration : 2h 14mn
      Bit rate : 1 499 Kbps
      Width : 720 pixels
      Height : 304 pixels
      Display aspect ratio : 2.35:1
      Frame rate : 23.976 fps
      Color space : YUV
      Chroma subsampling : 4:2:0
      Bit depth : 8 bits
      Scan type : Progressive
      Compression mode : Lossy
      Bits/(Pixel*Frame) : 0.286
      Stream size : 1.40 GiB (77%)
      Writing library : XviD 1.2.1 (UTC 2008-12-04)
 
   Audio:
      ID : 1
      Format : AC-3
      Format/Info : Audio Coding 3
      Mode extension : CM (complete main)
      Format settings, Endianness : Big
      Codec ID : 2000
      Duration : 2h 14mn
      Bit rate mode : Constant
      Bit rate : 448 Kbps
      Channel(s) : 6 channels
      Channel positions : Front: L C R, Side: L R, LFE
      Sampling rate : 48.0 KHz
      Bit depth : 16 bits
      Compression mode : Lossy
      Delay relative to video : 28ms
      Stream size : 430 MiB (23%)
      Alignment : Split accross interleaves
      Interleave, duration : 42 ms (1.00 video frame)
      Interleave, preload duration : 500 ms
 
28KMdyE.jpg
yRk5u8m.jpg
 
Υ Π Ο Θ Ε Σ Η:
 
Ένας ελεύθερος μαύρος, ζούσε στη Νέα Υόρκη μέχρι τη στιγμή που ξαφνικά απήχθη και πουλήθηκε ως σκλάβος. Ο Σόλομον που βρέθηκε αντιμέτωπος με την σκληρότητα αλλά ταυτόχρονα και την καλοσύνη του ιδιοκτήτη του, αγωνίστηκε για να παραμείνει ζωντανός και να διατηρήσει όση αξιοπρέπειά του είχει μείνει. Δώδεκα ολόκληρα χρόνια θα ζήσει αυτό το Γολγοθά, κατά τη διάρκεια των οποίων είχε την ευκαιρία να γνωρίσει έναν Καναδό, που θα του αλλάξει τη ζωή μια για πάντα.
 
n4gN7K5.jpg
5cIfbWp.jpg
 
Xs8PlEb.gif
 
Dd05XU3.png
Κρυφό Περιεχόμενο
Θα μπορείτε να δείτε το κρυφό περιεχόμενο εφόσον πατήσετε το κουμπάκι "Thanks".
 
ΚΙ ΕΔΩ ΟΙ ΥΠΟΤΙΤΛΟΙ:
Κρυφό Περιεχόμενο
Θα μπορείτε να δείτε το κρυφό περιεχόμενο εφόσον πατήσετε το κουμπάκι "Thanks".
 
OnI9ACY.png
[video=youtube;z02Ie8wKKRg]]
 
2mLSx8L.gif
 


Επεξεργάσθηκε απο NEWGREEK, 09 Ιανουάριος 2014 - 11:36 μμ.

  • Μου Αρέσει x 1

Thanked by 16 Members:
MitsosA , xpad1184iw , nugonide , kakoulidis , afrokostas , xypalex , evi34 , mpamposaa , andreas54 , dimi0608 , konstantinos653 , tassoshonda , manolisx , mike2020 , manos7777 , kwstarelos

#2
kwstarelos

kwstarelos

    Νουμπάκι

  • Members
  • Pip
  • 2 δημοσιεύσεις
    • Online: 4h 4m 34s
  • 0 topics
  • 2 thanks

αρκετα καλη ποιοτητα!



Thanked by 2 Members:
MitsosA , kaberos

Καλώς Ήρθατε
Προκειμένου να έχετε πλήρη πρόσβαση σε όλους τους τομείς θα πρέπει να κάνετε μια εγγραφή!